PDA

View Full Version : List of HD Comedy Movies(Links INCL.)



Wes
11-05-2013, 08:25 AM
List of HD Comedy Movies(Torrent Links)

1. Grown Ups 2(Released July 2013)

link: http://kickass.to/grown-ups-2-2013-1080p-brrip-x264-yify-t8032574.html
CODEC...............: X264
GENRE...............: Comedy
FILE SIZE...........: 1.45 GB
RESOLUTION..........: 1920*1040
FRAME RATE..........: 23.976 fps
AUDIO...............: 92.0 Kbps AAC-LC (2CH)
SUBTITLES...........: NONE
LANGUAGE............: English
RUNTIME.............: 101 mins
screenshots:
http://cdn.piczend.com/images/eYnx7B7K/kjewlvkb8oswcqeustu1bsqgg.png
http://cdn.piczend.com/images/eYnx7B7K/4edwco6bjtmetedhxzaduuwee.png
http://cdn.piczend.com/images/eYnx7B7K/nfw4ldzpglhliju2vzlzstmit.png

2. Grown Ups 1(2010)

link: http://kickass.to/grown-ups-2010-1080p-brrip-x264-yify-t7301939.html
FORMAT.......................: MP4
CODEC........................: X264
GENRE........................: Comedy
FILE SIZE....................: 1.40 GB
RESOLUTION...................: 1920*1040
FRAME RATE...................: 23.976 fps
LANGUAGE.....................: English
SUBTITLES....................: English
RUNTIME......................: 102 mins
http://cdn.piczend.com/images/UF88QeCA/dnkw1s1rngcxenp2bhcdvk1fp.png
http://cdn.piczend.com/images/UF88QeCA/zew3gwxk7tcqlt3rvql8weadh.png
http://cdn.piczend.com/images/UF88QeCA/3yru4wk8seff1qclssmcl4nsg.png

3. Kick-Ass 2

link: http://kickass.to/kick-ass-2-2013-hdrip-xvid-maxspeed-t8026465.html
Kick-Ass 2 (2013) HDRip XviD-MAXSPEED
Format : AVI
Format/Info : Audio Video Interleave
Format profile : OpenDML
Format settings : rec
File size : 1.36 GiB
Duration : 1h 42mn
Overall bit rate : 1 894 Kbps
Writing application : VirtualDubMod 1.5.10.2 (build 2542/release)
Writing library : VirtualDubMod build 2542/release
Original source form : MAX TORRENTZ
Copyright : SIGISMUNT

Video
ID : 0
Format : MPEG-4 Visual
Format profile : Advanced [email protected]
Format settings, BVOP : 2
Format settings, QPel : No
Format settings, GMC : No warppoints
Format settings, Matrix : Default (MPEG)
Muxing mode : Packed bitstream
Codec ID : XVID
Codec ID/Hint : XviD
Duration : 1h 42mn
Bit rate : 1 505 Kbps
Width : 720 pixels
Height : 304 pixels
Display aspect ratio : 2.35:1
Frame rate : 23.976 fps
Color space : YUV
Chroma subsampling : 4:2:0
Bit depth : 8 bits
Scan type : Progressive
Compression mode : Lossy
Bits/(Pixel*Frame) : 0.287
Stream size : 1.08 GiB (79%)
Writing library : XviD 1.2.1 (UTC 2008-12-04)

Audio
ID : 1
Format : AC-3
Format/Info : Audio Coding 3
Mode extension : CM (complete main)
Format settings, Endianness : Big
Codec ID : 2000
Duration : 1h 42mn
Bit rate mode : Constant
Bit rate : 384 Kbps
Channel(s) : 6 channels
Channel positions : Front: L C R, Side: L R, LFE
Sampling rate : 44.1 KHz
Bit depth : 16 bits
Compression mode : Lossy
Stream size : 283 MiB (20%)
Alignment : Aligned on interleaves
Interleave, duration : 70 ms (1.67 video frames)
Interleave, preload duration : 208 ms

Uploader: NO hardcoded subs/cropped image, great studio audio...clear and good as a dvd/blurayrip

Source: WEBDL (perfect a/v/sync quality,sample included)
This torrent is not seedbox supported,please seed it to the MAX
http://img4.imageshack.us/img4/8236/jv22.jpg
http://img443.imageshack.us/img443/7830/d33e.jpg
http://img62.imageshack.us/img62/6093/uv53.jpg
http://img708.imageshack.us/img708/2421/fljc.jpg

4. Despicable Me 2:

link: http://kickass.to/despicable-me-2-2013-1080p-brrip-x264-yify-t8033230.html
CODEC...............: X264
GENRE...............: Animation
FILE SIZE...........: 1.45 GB
RESOLUTION..........: 1920*1040
FRAME RATE..........: 23.976 fps
AUDIO...............: 92.0 Kbps AAC-LC (2CH)
SUBTITLES...........: NONE
LANGUAGE............: English
RUNTIME.............: 98 mins
http://cdn.piczend.com/images/tb5EJxnw/lzvkhfkk9dedbt2avy8b1li02.jpeg


5. Despicable Me:

link: http://kickass.to/despicable-me-2010-720p-brrip-x264-stylishsalh-stylish-release-t6871489.html
Video
Format : AVC
Format/Info : Advanced Video Codec
Duration : 1h 34mn
Bit rate mode : Constant
Bit rate : 758 Kbps
Width : 1280 pixels
Height : 688 pixels
Display aspect ratio : 16:9
Frame rate mode : Constant
Frame rate : 23.976 fps
Credits : Intact

Audio
Format : AAC
Format/Info : Advanced Audio Codec
Format profile : HE-AACv2 / HE-AAC / LC
Duration : 1h 34mn
Bit rate mode : Variable
Bit rate : 48.0 Kbps
Channel(s) : 2 channels
Channel positions : Front: L R / Front: C / Front: C
Sampling rate : 48.0 KHz
Language : English

Subtitles
English
http://www.piczend.com/img.php?image=3560_1_2za5.jpg
http://www.piczend.com/img.php?image=1907_2_6xue.jpg
http://www.piczend.com/img.php?image=3693_3_elhi.jpg
http://www.piczend.com/img.php?image=1173_4_e1ps.jpg

The Internship:

link: http://kickass.to/the-internship-2013-unrated-720p-brrip-x264-yify-t7996754.html
CODEC...............: X264
GENRE...............: Comedy
FILE SIZE...........: 869.13 MB
RESOLUTION..........: 1280*544
FRAME RATE..........: 23.976 fps
AUDIO...............: 92.0 Kbps AAC-LC (2CH)
SUBTITLES...........: NONE
LANGUAGE............: English
RUNTIME.............: 125 mins
http://cdn.piczend.com/images/C6k5bHU9/qwntnxmjxv3lghnaaoyoa6z9k.jpeg


T.B.A.:
Bad Grandpa
Any requests(post below)

poseidon
11-05-2013, 08:43 AM
Thanks even though i have seen and torrented all of these im sure others will enjoy :) great post

Wes
11-05-2013, 09:05 AM
Thanks lol, these are just my favorite movies. I'll add more eventually :P Only ones I've seen on this list are Grown Ups 2 and Despicable Me, and Grown Ups. I just now watched Grown Ups 2 xD